Dorohedoro 08

Mendigas olas de calor quieto que llegue el otoño asi me pongo al dia con todo joder xD

Bueno dejando de lado mis quejas hemos abierto un sector para donaciones que tendran ciertas ventajas una de las principales es la descarga directa desde nuestro servidor sin esperas a maxima velocidad esto solo sera con las series de temporada que hagamos en el fansub ya que no tengo espacio para almacenar 2 temporadas asique bueno despues tienen rangos especiales podran discutir con el staff por cambios lean las reglas para mas informacion les dejo el link Donacion o Patreon como sea que le digan ahora (Recuerden que deben estar registrados en el foro para poder descargar las series pronto se añadiran los subs tambien)

Captura: Clic en la imagen para agrandar

Descarga Directa
Mediafire

Dorohedoro Soundtrack Op + End Completos MP3 320Kbps & FLAC Audio

Bueno se da la casualidad que salio todo el soundtrack bueno no todo no las canciones extras pero si las del opening y ending asique aqui les hice la conversion a mp3 porque todo estaba en FLAC

[Imagen: Cover-dorohedoro.jpg]


Lista de Canciones:

01) Welcome to Chaos
02) Welcome to Chaos (Instrumental)
03). Who am I _
04). Night SURFING
05). D.D.D.D
06) So HUNGRY
07) So HUNGRY (Instrumental)


la ultima cancion fue una extra que venia con Welcome to chaos y la deje viene con 2 covers

La version FLAC solo estara disponible por descarga directa esto se debe a su gran tamaño.

Mediainfo MP3 (Primer cancion)

Format : MPEG Audio
Format version : Version 1
Format profile : Layer 3
Duration : 3 min 38 s
Bit rate mode : Constant
Bit rate : 320 kb/s
Channel(s) : 2 channels
Sampling rate : 48.0 kHz
Compression mode : Lossy
Stream size : 8.32 MiB (90%)


MediaInfo FLAC (Primer cancion)

Format : FLAC
Format/Info : Free Lossless Audio Codec
Duration : 3 min 38 s
Bit rate mode : Variable
Bit rate : 3 033 kb/s
Channel(s) : 2 channels
Channel layout : L R
Sampling rate : 96.0 kHz
Bit depth : 24 bits
Compression mode : Lossless
Stream size : 78.8 MiB (99%)
Writing library : Lavf58.30.100

Version MP3 320Kkbps
Version Flac
Tema en el foro: Dorohedoro Soundtrack

Dorohedoro 07

Dije a la noche bueno ahora es madrugada del martes que mas da solo esta subido al torrent y a 1ficher mediafire estara para mañana.

Nota: Debido a unos problemas con el procesamiento del pago a mega no estara disponible por un tiempo y esta limitada las descargas de esa cuenta por tal motivo las series seran subidas a mediafire temporalmente aunque ambas somali y dorohedoro ya estan subidas en 1ficher

Captura: Clic en la imagen para agrandar

Descarga Directa
Mediafire

Dorohedoro 06

Despues de una semanas muy complicadas y sin contar que hasta el sabado andaba con un poco de fiebre finalmente puedo ponerme de nuevo a hacer esto asique aqui les va somali lo ire haciendo durante la semana y el capitulo 7 de hoy de dorohedoro probablemente para mañana en la noche =P

Nota: otra vez mega no registro el pago no funcionara por unos dias se esta subiendo a 1ficher los caps y mediafire

Captura: Clic en la imagen para agrandar

Descarga Directa

Dorohedoro 05

Y finalmente estamos al dia con esta serie siguiente somali jajaja quizas mañana en la noche misma hora no lo se e.e

Captura: Clic en la imagen para agrandar

Descarga Directa

Dorohedoro 04

Y finalmente la ola de calor termino y yo ya puedo hacer lo de siempre aunque estoy super atrasada en muchas cosas en estos dias me pondre al dia con esto probablemente mañana salga el cap 05 si lo termine esta noche somali la retrasare al martes o miercoles Disculpen las molestias pero tenia que descansar despues de una ola de calor de mas 40 grados durante el dia y 30 durante la noche solo dormia 4 a 6 horas necesitaba un dia para recuperar el sueño xD en fin aqui les dejo el cap

Captura: Clic en la imagen para agrandar

Descarga Directa

Somali to Mori no Kamisama 04

debido a la extrema ola de calor en mi region (Arriba de los 40 grados y en la noche no baja de 30) dorohedoro seguira retrasada disculpen las molestias, en cuanto a somali la traduje justo antes de la ola de calor pero el editor andaba ocupado y recien hoy me lo envio xD

Captura:

Descarga Directa:
Mega

Dorohedoro 03

Hola, bueno se supone que esto lo iba a hacer un nuevo traductor que espere y espere y finalmente ayer a eso de las 8 de la noche dejo el servidor de discord sin decir nada y aun no dice nada asique 2 horas despues de eso me puse yo a traducir dorohedoro 03 cosa que termine como a las 3 y media am tuve que reencodear el video porque los creditos del otro video que estaba listo estaban a nombre del "nuevo" traductor asique nada hice maraton y lo termine desde anoche estaba subido al seedbox y los que estaban en discord pudieron descargarlo por adelantado ahora se esta haciendo la publicacion oficial, dejando esto de lado el proximo cap saldra como siempre entre el lunes a miercoles somali tambien experimentara retraso por lo mismo de dorohedoro disculpen la demora

Captura: Clic en la imagen para agrandar

Descarga Directa

Somali to Mori no Kamisama 03

y otro capitulo de esta serie muy entretenida por cierto no tengo mucho para comentar salvo que dorohedoro tiene un traductor dedicado ahora luego me dicen que tal en fin aqui les dejo la captura

Captura:

\

Descarga Directa:
Mega